افلام اجنبية تحميل ومشاهد الافلام الاجنبية , افلام اجنبية حصرية من البوكس اوفس Box Office ،افلام اجنبية مترجمه 2017 ،افلام 2017

إضافة رد
 
LinkBack أدوات الموضوع انواع عرض الموضوع

قديم 12-30-2010   #1
Banned
 
salma_may89 بغدادي طاكsalma_may89 بغدادي طاكsalma_may89 بغدادي طاكsalma_may89 بغدادي طاكsalma_may89 بغدادي طاكsalma_may89 بغدادي طاكsalma_may89 بغدادي طاكsalma_may89 بغدادي طاكsalma_may89 بغدادي طاكsalma_may89 بغدادي طاكsalma_may89 بغدادي طاك salma_may89 غير متواجد حالياً

فيلم الاكشن الرائع للنجم ويسلي سنايبر Game of Death 2010





File size: 717 MiB
Duration: 1h 22mn
Overall bit rate: 1 217 Kbps

Video
Codec ID/Hint: XviD
Duration: 1h 22mn
Bit rate: 956 Kbps
Width: 640 pixels
Height: 272 pixels
Display aspect ratio: 2.35:1
Frame rate: 25.000 fps
Resolution: 8 bits
Colorimetry: 4:2:0
Scan type: Progressive
Bits/(Pixel*Frame): 0.220
Stream size: 563 MiB (79%)
Writing library: XviD 1.2.1 (UTC 2008-12-04)

Audio
ID: 1
Format: AC-3
Format/Info: Audio Coding 3
Codec ID: 2000
Duration: 1h 22mn
Bit rate mode: Constant
Bit rate: 256 Kbps
Channel(s): 6 channels
Channel positions: Front: L C R, Surround: L R, LFE
Sampling rate: 48.0 KHz
Stream size: 151 MiB (21%)
Alignment: Aligned on interleaves
Interleave, duration: 64 ms (1.60 video frames)
Interleave, preload duration: 192 ms
Title: VTS_01_1 T80 3_2ch 448Kbps DELAY 0ms_new

IMDB LInk>>>>>>>>>>>>>>>http://www.imdb.com/title/tt1446072/

CAST

Wesley Snipes ... Agent Marcus
Zoe Bell
Gary Daniels ... Zander
Robert Davi ... Smith
Simon Rhee ... Stairwell assasin
Richard Goteri ... The Visitor
Ele Bardha ... Security Guy #1
Vladimir Tevlovski ... Agent

PLOT

Secret Ops agent Marcus is sent to Detroit to take out an arms dealer and the head of the hedge fund that is financing him. His CIA backup has other plans and turns on him and it's a fight to survive in a hospital
















لتحميل الجزء الاول


لتحميل الجزء الثانى

  رد مع اقتباس

إضافة رد

مواقع النشر (المفضلة)

الكلمات الدلالية (Tags)
2010, الاكشن, death, game, فيلم


الذين يشاهدون محتوى الموضوع الآن : 1 ( الأعضاء 0 والزوار 1)
 
أدوات الموضوع
انواع عرض الموضوع

تعليمات المشاركة
لا تستطيع إضافة مواضيع جديدة
لا تستطيع الرد على المواضيع
لا تستطيع إرفاق ملفات
لا تستطيع تعديل مشاركاتك

BB code is متاحة
كود [IMG] متاحة
كود HTML معطلة
Trackbacks are متاحة
Pingbacks are متاحة
Refbacks are متاحة


المواضيع المتشابهه
الموضوع كاتب الموضوع المنتدى مشاركات آخر مشاركة
فيلم الاكشن الخرافي كل ابطال افلام الاكشن في فيلم واحد The Expendables 2010 "SILENT HUNTER" افلام اجنبية 31 01-08-2011 01:02 AM
فيلم الاكشن Game Of Death 2010 DVDRip مترجم بجودة DVDRip ع اكثر من سيرفير مصطفى الصجـــري افلام اجنبية 2 12-16-2010 06:48 PM
لعبة الاكشن والرعب الجديدة 2010 Judge Dredd: Dredd VS Death كـَِـَِـَِآإآرٍرٍهَِ آإلـدًدٍنـًـًيـٍـٍآ العاب الكمبيوتر و الاجهزة الألكترونية 8 10-10-2010 02:30 PM


الساعة الآن 09:25 AM


اغاني عراقية

Powered by vBulletin

Search Engine Optimization by vBSEO ©2011, Crawlability, Inc.

1 2 3 4 5 6 7 8 9 10 11 12 13 14 15 16 17 18 19 20 21 22 23 24 25 26 27 28 29 30 31 32 33 34 35 36 37 38 39 40 41 42 43 44 45 46 47 48 49 50 51 52 53 54 55 56 57 58 59 60 61 62 63 64 65 66 67 68 69 70 71 72 73 74 75 76 77 78 79 80 81 82 83 84 85 86 87 88 89 90 91 92 93 94 95 96 97 98 99 100 101 102 103 104 105 106 107 108 109 110 111 112 113 114 115 116 117 118 119 120 121 122 123 124 125 126 127 128 129 130 131 132 133 134 135 136 137 138 139 140 141 142 143 144 145 146 147 148 149 150 151 152 153 154 155 156 157 158 159 160 161 162 163 164 165 166 167 168 169 170 171 172 173 174 175 176 177 178 179 180 181 182 183 184 185 186 187 188 189 190 191 192 193